Forme harmonique forex


forme harmonique forex

Le Poème Harmonique / Capella Cracoviensis / Vincent Dumestre : Charpentier Lully: Te Deum (Live. Maintenant que vous avez pris connaissance des formes graphiques de base (triangle, tte, épaule il est de temps de passer au niveau supérieur et dajouter des outils plus avancés à tout votre arsenal de trading. 146: Te ergo quaesumus, famulis tuis subveni DR12 -1.10 dB -17.22 dB 3:53 13-Te Deum, LWV 55: Patrem immensae majestatis DR10 -1.08 dB -17.76 dB 1:02 02-Te Deum,. Inutile de vous inquiéter Une fois toutes ces formes assimilées, ce sera aussi facile que de compter jusquà. Vous verrez prochainement ce à quoi nous faisons référence, alors commençons! Lidée générale derrière ces formes repose sur la possibilité de vous aider à repérer les retracements possibles et/ou les imminents renversements de tendance le plus tôt possible. Dans cette leçon, nous allons décrire les formes harmoniques suivantes : Forme abcd, forme Three-Drive, forme Gartley, forme Crabe Crab. Le Poème Harmonique, Performer - Capella Cracoviensis, Performer - Vincent Dumestre, Performer - Amel Brahim Djelloul, Performer - Aurore Bucher, Performer - Reinoud Van Mechelen, Performer - Jeffrey Thompson, Performer - Marc-Antoine Charpentier, Composer / Le Poème Harmonique / Capella Cracoviensis / Vincent Dumestre. Le Poème Harmonique, Performer - Capella Cracoviensis, Performer - Vincent Dumestre, Performer - Amel Brahim Djelloul, Performer - Marc-Antoine Charpentier, Composer / Le Poème Harmonique / Capella Cracoviensis / Vincent Dumestre : Charpentier Lully: Te Deum (Live Recording at La Chapelle Royale du Château. Après avoir appris ces formes, nous aborderons les outils dont vous avez besoin afin de trader ces formes avec succès sur le marché du Forex. Nous allons commencer avec les formes de base à savoir labcd et le three-drive » avant dapprofondir avec le Gartley et les formes animales.

Forex et formes harmoniques
Download Best forex harmonic pattern Finder V2 Indicator free
Polygon- harmonique, patternEA par ElementaryFX, forex, wiki Trading
Binary Options Edge - Trading Forums
Indicateur, forex le plus fiable - Meilleur indicateur boursier

Taux devises forex, Figure graphique forex, Les crypto monnaie qui vont performer,

Le Poème Harmonique, Performer - Capella Cracoviensis, Performer - Vincent Dumestre, Performer - Jeffrey Thompson, Performer - Amel Brahim Djelloul, Performer - Aurore Bucher, Performer - Benoit Arnould, Performer - Reinoud Van Mechelen, Performer - Jean-Baptiste Lully, Composer / Le Poème Harmonique / Capella Cracoviensis. 146: Te per orbem terrarum DR9 -0.44 dB -12.26 dB 1:20 01-Te Deum,. En réalité, nous allons utiliser des instruments que nous vous avons déjà présentés les retracements de Fibonacci et leurs extensions! Le Poème Harmonique, Performer - Capella Cracoviensis, Performer - Vincent Dumestre, Performer - Amel Brahim Djelloul, Performer - Benoit Arnould, Performer - Aurore Bucher, Performer - Marc-Antoine Charpentier, Composer / Le Poème Harmonique / Capella Cracoviensis / Vincent Dumestre : Charpentier Lully: Te Deum (Live. Dans cette leçon, nous allons observer des graphiques de prix illustrés au moyen de formes harmoniques. Dynamic Range Meter foobar2000.2.2 / Dynamic Range Meter.1.1 log date: 23:02:, analyzed: Le Poème Harmonique, Performer - Capella Cracoviensis, Performer - Vincent Dumestre, Performer - Amel Brahim Djelloul, Performer - Aurore Bucher, Performer - Jean-Baptiste Lully, Composer / Le Poème Harmonique / Capella. Jean-Baptiste lully Te Deum LWV.55 10 Te Deum laudamus 257 11 Tibi omnes angeli 115 12 Pleni sunt caeli et terra 318 13 Patrem immensae majestatis 352 14 Tu rex gloriae, Christe 259 15 Tu ad dexteram Dei sedes 115 16 Te ergo quaesumus, famulis.

Rsi strategie forex
Analyse de devises forex alpha
XM Forex mastercard


La partie la plus importante de son invention était le caractère décentralisé de celle-ci. "Après plus d'une décennie d'échecs, ils voient ça comme une cause perdue. Nous avons construit ce site..
Read more
Si beaucoup reste à faire au niveau de la régulation des crypto-monnaies, quels sont les atouts de la France en matière. Ce nétait pas une crypto-monnaie au départ. Last price 24..
Read more

Meilleurs site pour acheter des cryptomonnaies

Tout simplement parce que ces sites sont soumis à de nombreuses obligations légales. Derrière cette identité se cacherait un développeur (ou plus probablement un groupe de développeurs dont l'objectif était de


Read more

Explication de l'utilisation de trading forex

Il faut remarquer que la paire EUR/USD diffère de la paire USD/EUR et qu'elles font l'objet de deux cotations séparées, tout en étant étroitement liées. La Bourse est en effet un


Read more

FXCM examen des courtiers en devises

La Trading Station calcule automatiquement le rollover et le montre pour vous. Notez que si vous clôturez une position vendeuse vous devrez faire référence au prix demandé. Réglementations fxcm, a


Read more
Sitemap